精华内容
下载资源
问答
  • AI去水印源码 CVPR 2017

    2018-09-22 20:47:34
    automatic-watermark-detection AI自动去水印源码实现
  • 2020增强版短视频去水印源码 去水印微信小程序源码网站 去水印软件源码 安装环境(需要材料):备案域名–服务器安装宝塔-安装 Nginx 或者 Apache php5.6 以上-安装 sg11 插件 小程序已自带解析接口,支持全网...
  • 解析是官方接口,上传到服务器就可以打开
  • 独立版本主要功能: 1.新增激励广告(保存视频需要观看广告,24小时内看一次即可无限制解析) 2.新增插屏广告(打开首页弹窗显示插屏广告,24小时只会弹出一次) 3.视频广告(首页固定位置显示) ...
  • 最新可用,2019-4-4测试可用, 使用方法 localhost/curl.php?url=抖音视频链接
  • 一键去水印

    2017-10-19 11:15:11
    一键去水印,不懂ps的也可以操作,很方便。只支持Windows平台的
  • 保存后,我们会面临一个非常尴尬的事情,那就是“水印”,SKW短视频去水印管理系统,自动解析水印删除! SKW短视频去水印管理系统可以支持各种短视频平台的下载,并可以下载自己喜欢的视频(源码+无加密,可二次...
  • ffmpeg 去水印使用GPU让效率提升5倍

    千次阅读 2020-06-17 17:21:32
    使用GUP去水印处理 首先我们给出ffmpeg 最常用的去水印的命令: ffmpeg -y -i demo.mp4 -vf delogo=x=0:y=0:w=100:h=100:show=0 demo_nowatermark.mp4 我们先来看一下这个视频的信息: Input #0, mov,mp4,m4...

    不使用GUP去水印处理

    ffmpeg最常用的去水印的命令:

    ffmpeg -y -i demo.mp4  -vf delogo=x=0:y=0:w=100:h=100:show=0 demo_nowatermark.mp4

    视频的信息如下:

    Input #0, mov,mp4,m4a,3gp,3g2,mj2, from 'demo.mp4':
      Metadata:
        major_brand     : isom
        minor_version   : 512
        compatible_brands: isomiso2avc1mp41
        encoder         : Multimedia Cloud Transcode (cloud.baidu.com)
        comment         : Content Adaptive Encoding 3.0
      Duration: 00:03:43.36, start: 0.000000, bitrate: 1284 kb/s
        Stream #0:0(und): Video: h264 (High) (avc1 / 0x31637661), yuv420p, 1280x720, 1213 kb/s, 25 fps, 25 tbr, 12800 tbn, 50 tbc (default)
        Metadata:
          handler_name    : VideoHandler
        Stream #0:1(und): Audio: aac (LC) (mp4a / 0x6134706D), 44100 Hz, stereo, fltp, 64 kb/s (default)
        Metadata:
          handler_name    : SoundHandler

    分辨率: 1280*720

    码率:1284 kb/s

    时长:03:43秒 =  223秒

    执行常用命令,并记录花费时间如下:

    当前时间: 16:46:55.58
    输入新时间:

    D:\>ffmpeg -y -i demo.mp4  -vf delogo=x=10:y=10:w=100:h=100:show=0 demo_nowatermark.mp4

    ......此处省略一些信息
    [libx264 @ 0000016277176040] mb P  I16..4:  7.6% 19.7%  0.8%  P16..4: 40.5%  8.1%  2.4%  0.0%  0.0%    skip:21.0%
    [libx264 @ 0000016277176040] mb B  I16..4:  0.7%  1.5%  0.0%  B16..8: 34.5%  1.6%  0.2%  direct: 1.3%  skip:60.2%  L0:42.5% L1:53.8% BI: 3.7%
    [libx264 @ 0000016277176040] 8x8 transform intra:70.0% inter:87.8%
    [libx264 @ 0000016277176040] coded y,uvDC,uvAC intra: 35.9% 57.9% 10.8% inter: 7.8% 15.0% 0.8%
    [libx264 @ 0000016277176040] i16 v,h,dc,p: 21% 28% 10% 41%
    [libx264 @ 0000016277176040] i8 v,h,dc,ddl,ddr,vr,hd,vl,hu: 24% 23% 21%  4%  6%  5%  7%  5%  5%
    [libx264 @ 0000016277176040] i4 v,h,dc,ddl,ddr,vr,hd,vl,hu: 26% 24% 13%  5%  9%  7%  8%  5%  4%
    [libx264 @ 0000016277176040] i8c dc,h,v,p: 53% 24% 17%  6%
    [libx264 @ 0000016277176040] Weighted P-Frames: Y:4.1% UV:1.2%
    [libx264 @ 0000016277176040] ref P L0: 66.9% 15.7% 12.1%  5.1%  0.1%
    [libx264 @ 0000016277176040] ref B L0: 92.2%  6.1%  1.7%
    [libx264 @ 0000016277176040] ref B L1: 98.2%  1.8%
    [libx264 @ 0000016277176040] kb/s:1475.57
    [aac @ 0000016276efe6c0] Qavg: 835.078

    D:\>time
    当前时间: 16:48:06.22
    输入新时间:

    D:\>

    用时大概是 70秒,在看一下CPU(i7)的利用率一直在100%

    去水印的效果这里不展示了,因为是某个平台的视频,大家可自行测试。

    这样的结果来说,如果只处理单个视频,所用时间长点,应该还OK;如果视频多,而且每个视频的时间很长,那么效率会特别的低,所以考虑使用GPU来处理这个问题。

    使用GUP去水印处理

    前提是你必须先要有英伟达Nivida的显卡,而且驱动都安装完毕,也可以直接到英伟达官网下载,我这个是windows10的版本的地址,下面是使用GPU去水印的命令:

    ffmpeg   -y -hwaccel  cuvid   -c:v h264_cuvid  -i demo.mp4 -c:v h264_nvenc  -vf  "delogo=x=976:y=26:w=280:h=80"    demo_nowatermark.mp4

    测试如下:

    Input #0, mov,mp4,m4a,3gp,3g2,mj2, from 'demo.mp4':
      Metadata:
        major_brand     : isom
        minor_version   : 512
        compatible_brands: isomiso2avc1mp41
        encoder         : Multimedia Cloud Transcode (cloud.baidu.com)
        comment         : Content Adaptive Encoding 3.0
      Duration: 00:03:43.36, start: 0.000000, bitrate: 1284 kb/s
        Stream #0:0(und): Video: h264 (High) (avc1 / 0x31637661), yuv420p, 1280x720, 1213 kb/s, 25 fps, 25 tbr, 12800 tbn, 50 tbc (default)
        Metadata:
          handler_name    : VideoHandler
        Stream #0:1(und): Audio: aac (LC) (mp4a / 0x6134706D), 44100 Hz, stereo, fltp, 64 kb/s (default)
        Metadata:
          handler_name    : SoundHandler
    Stream mapping:
      Stream #0:0 -> #0:0 (h264 (h264_cuvid) -> h264 (h264_nvenc))
      Stream #0:1 -> #0:1 (aac (native) -> aac (native))
    Press [q] to stop, [?] for help
    Impossible to convert between the formats supported by the filter 'graph 0 input from stream 0:0' and the filter 'auto_scaler_0'
    Error reinitializing filters!
    Failed to inject frame into filter network: Function not implemented
    Error while processing the decoded data for stream #0:0
    [aac @ 000002419730bac0] Qavg: 36685.109
    [aac @ 000002419730bac0] 2 frames left in the queue on closing

    发现这样的错误,graph 0 input from stream 0:0,网上搜了一下没有发现可以解决的办法,但有人说了问题的原因可能是解码器解析的结果不支持直接去去水印操作,所以我大胆的猜想了一下,仅仅使用GPU的编码功能,不用解码功能看是否可以,就有了下面的命令,解码使用默认,编码使用gpu的编码(毕竟编码更消耗时间)

    ffmpeg   -y   -i demo.mp4 -c:v h264_nvenc  -vf  "delogo=x=976:y=26:w=280:h=80"    demo_nowatermark.mp4

    我这里还去掉了 -hwaccel  cuvid  你还可以加上,有的机器会报一个小错误,也不影响,不报错的写法就是我上面的写法

    那么我们再来看下测试的性能结果:

    D:\>time
    当前时间: 17:08:09.85
    输入新时间:

    D:\>ffmpeg   -y   -i demo.mp4 -c:v h264_nvenc  -vf  "delogo=x=976:y=26:w=280:h=80"    demo_nowatermark.mp4
    ffmpeg version 4.2 Copyright (c) 2000-2019 the FFmpeg developers
     ---此次省略不重要信息-----
          cpb: bitrate max/min/avg: 0/0/2000000 buffer size: 4000000 vbv_delay: -1
        Stream #0:1(und): Audio: aac (LC) (mp4a / 0x6134706D), 44100 Hz, stereo, fltp, 128 kb/s (default)
        Metadata:
          handler_name    : SoundHandler
          encoder         : Lavc58.54.100 aac
    frame= 5585 fps=451 q=16.0 Lsize=   58537kB time=00:03:43.36 bitrate=2146.9kbits/s dup=1 drop=0 speed=18.1x
    video:54952kB audio:3446kB subtitle:0kB other streams:0kB global headers:0kB muxing overhead: 0.238407%
    [aac @ 00000186af1c7740] Qavg: 835.078

    D:\>time
    当前时间: 17:08:25.86
    输入新时间:

    哇喔,只用时16s,再看下cpu与gpu的利用率

    总结:

    70S的时间减少到16秒,只用了原来 22%的时间,而且cpu 利率用也可以接受,如果这个机器做双并发,那么用时可以减少到11%(当然不能这么粗略估计,我测试了一个并发两个的效果,虽然不能到这个值,但是还是有很高的提升,当然cpu利用率就100%,gpu的利用率还是在50%左右)

    这里仅仅是列举了一个去水印使用gpu的处理办法,如果你用来转码等同样可以使用gpu,命令也是很简单的。

    再后来我发现命令改成解码也用gpu也是可以的,但是用时上并没有缩短,可能解码本身就不会花费太多时间吧,命令如下:

    ffmpeg   -y   -c:v h264_cuvid  -i demo.mp4 -c:v h264_nvenc  -vf  "delogo=x=976:y=26:w=280:h=80"    demo_nowatermark.mp4

     

    展开全文
  • PDF去水印绿色版

    2018-11-21 13:51:29
    SoftOrbits PDF Logo Remover是由SoftOrbits推出的一款PDF去水印工具。如果PDF文件上有较大的水印,影响阅读,爱分享相信作为读者的你一定会看得不舒服,怎么去掉这些水印了?使用SoftOrbits PDF Logo Remover可以...
  • 一个基于云开发的抖音去水印接口搭建的教程,不用调用第三方接口,是做一个直接解析的一次接口,直接解析出短视频无水印的视频,同时包含了如何利用云开发(node.js)做一个文件中转下载的案例。
  • 最近分享抖音的视频发现都有水印和官方片尾,所以分享了这款可以去水印和片尾的解析工具;主要是针对抖音App内的视频,使用的方法很简单;只需打开抖音APP,复制想要下载的短视频链接,粘贴进工具,点击解析下载;...
  • 2021最新支持各大平台视频去水印小程序源码,后台配置配置一切,可开流量主获得收益,下载后打开微信开发者工具修改后台接口,appid即可使用!微信小程序搜 忆刻去水印工具 体验
  • 支持 Win 系统,软件十分小巧,仅仅 1.3MB,支持 D 音单个、批量视频无水印下载,使用简单,解析速度快! 永久免费,无限次数使用 支持单个、批量解析下载 纯净、无GG,简单使用
  • 小程序去水印源码,开源产品,未加密未授权,可调用别人的接口和自己的接口,喜欢的朋友可以下载使用学习。
  • 智能去水印工具

    2019-01-29 20:58:50
    一款优秀的智能去视频水印工具,本人使用多年,非常实用。
  • 源码介绍: 使用了精易模块和精易皮肤模块,源码仅供参考,严禁商业或非法用途!
  • 现在有一些朋友在抖音或者快手等短视频平台看到一些比较有趣的短视频,想要给朋友分享,如果直接保存短视频的话,会有原作者的水印,如果不想要有水印的话,就需要第三方工具了,目前我正在的一款第三方去水印的...
  • 现在不少的小伙伴都会在网上下载一些好看的图片,但是总有很多时候我们下载下来的图片是带水印的,让人觉得不是很...步骤四:选择左上角框选工具框选印“果壳”,选择右上角“开始去水印”,去除水印后,下载文件保存本.

    现在不少的小伙伴都会在网上下载一些好看的图片,但是总有很多时候我们下载下来的图片是带水印的,让人觉得不是很好看,看起来也有点小奇怪,别担心,今天小编告诉大家两款去除图片上的水印软件。

     

    一、水印云
    步骤一:在浏览器上搜索“水印云”,,点击“立即体验”;(也可下载水印云客户端,步骤同下)。

    图片去水印用什么软件-图片去水印用什么软件好

    步骤二:注册一个账号并登录,点击“视频去水印”;

    图片去水印用什么软件-图片去水印用什么软件好

    步骤三:点击“添加文件”,并本地上传有水印视频;

    图片去水印用什么软件-图片去水印用什么软件好

    步骤四:选择左上角框选工具框选印“果壳”,选择右上角“开始去水印”,去除水印后,下载文件保存本地电脑即可。

    图片去水印用什么软件-图片去水印用什么软件好

    图片去水印用什么软件-图片去水印用什么软件好

    处理好的效果图如下:

    图片去水印用什么软件-图片去水印用什么软件好

    二、PS

    如果我们在电脑上去除图片上的水印的话,我们可以利用【PS】来帮我们完成图片去水印的操作。我们可以用PS打开带有水印的图片,然后点击【矩形选框工具】将图片水印框选出来,再点击右键,选择【填充】,在【填充】窗口中选择【内容识别】后点击【确定】就可以了。

    图片去水印用什么软件-图片去水印用什么软件好

    展开全文
  • 去水印使用教程第一步:在抖音或者其他短视频平台点击分享按钮,如下图所示????第二步:找到短视频的分享链接点击复制链接,如下图所示????第三步:复制好分享链接后回到小程序界面,软件会自动截取视频链接,如图所...

    第一步:在抖音或者其他短视频平台点击分享按钮,如下图所示👇

    第一步

    第二步:找到短视频的分享链接点击复制链接,如下图所示👇

    复制分享链接

    第三步:复制好分享链接后回到小程序界面,软件会自动截取视频链接,如图所示👇(点击确定)

    小程序截取视频链接

    第四部:链接复制好之后点击开始解析,如图所示👇

    解析小视频

    第五步:解析完成后会自动跳入下载链接,可选择保存封面,无水印视频链接,无水印视频,复制原视频标题。

    小程序界面

    第六步:小程序支持批量解析,相册照片去水印,MD5修改。如上图所示👆

    第七步:免费获取366天的解析会员,关注公众号,联系客服或者加客服微信,发送自己的微信昵称领取兑换码,在“我的”输入兑换码在线验证即可。

    兑换

    总结:

    小程序搜索‘泽水印’或者扫码即可立马体验。
    扫码体验

    展开全文
  • 小程序已自带解析接口,支持全网主流短视频平台,搭建好了就能 注:接口是公益的,那么多人解析慢是肯定的, 前段和后端源码已经打包,上传服务器之后在配置文件修改数据库密码。然后输入自己的域名,进入后台...
  • 视频的方式,记录代码思路和实现逻辑,该过程试用了chrome浏览器抓包分析包与包之间的关系,关键数据的判断,到最后的数据过滤,筛选,查找等手段,最后代码实现,皮皮虾短视频去水印,附源码
  • 操作步骤:  ①上传源码 解压到wwwroot文件夹  ②PHP空间版本设置在5.6以上 需要Mysql ... ③绑定域名 打开域名 就完成了 ... 需要设置解析的API,源码自带那个好像失效了,自己找下API就可以了。
  • 推荐环境:CentOS系统 +宝塔面板+ Nginx + ... 演示小程序:快趣水印 安装教程: ...微信开发者工具导入前端代码,修改siteinfo.js 里面的域名为你的域名 注意:需开启https 需要解析接口:接口请到后台申请
  • 2021快手去水印视频和图片源码,2021-9-10可以,需要GuzzleHttp扩展
  • 去水印工具新版.exe

    2020-05-24 10:41:39
    公司内部文件防护水印,文件打开乱码,无法打开等问题,去除文件水印乱码的小工具,使用方便,将文件拖入软件,点击脱除水印
  • originPro2017去水印补丁

    2019-02-02 10:30:18
    网上下载的好多版的originPro2017七天后可以使用,但所有的图片上会有水印,这个是专门去水印的补丁。解压后,将其复制到安装目录下,右击以管理员身份运行,然后再使用origin就没有水印了。每次之前按照我说的...
  • 批量去水印工具

    2019-03-26 20:32:55
    batchinpaintportable是绿色版的图像水印去除工具,可以有效地去除图片上的水印、网站logo等,支持批量去除,同时也支持批量导入文件夹进行水印的去除操作,batchinpaintportable2.0中文版是使用较为普遍的一个版本...
  • 新版小程序去水印源码,开源产品,未加密未授权,可调用别人的接口和自己的接口,喜欢的朋友可以下载使用学习
  • 抖音去水印小程序搭建教程(附源码) 环境要求: 环境推荐 Linux + 宝塔面板 + Nginx + php5.6 没那么复杂装好后配置接口,小程序过审就可以
  • 主要介绍了如何通过javacv实现图片去水印(附代码),文中通过示例代码介绍的非常详细,对大家的学习或者工作具有一定的参考学习价值,需要的朋友可以参考下

空空如也

空空如也

1 2 3 4 5 ... 20
收藏数 3,442
精华内容 1,376
关键字:

去水印怎么用